» » Терминатор / Terminator (1984-2009) BDRip 1080p | 60 fps

Терминатор / Terminator (1984-2009) BDRip 1080p | 60 fps

0 комментариев | 1 711 просмотров
28
11
2014
Терминатор / Terminator (1984-2009) BDRip 1080p | 60 fps


Жанр: фантастика , боевик , триллер
Год: 1984 , 1991 , 1983 , 2003 , 2009
Произведено: США, Франция, Великобритания, Италия
Продолжительность: 01:47:24; 02:33:25; 01:49:06; 01:57:31

Описание:Терминатор (Terminator) – культовый персонаж одноимённой фантастической франшизы, плодотворно завоевавшей экран, видеоигры, комиксы, литературные адаптации сценариев, серию игрушек… Герой-злодей был придуман талантливым режиссёром Джеймсом Кэмероном (James Cameron), основанным на приснившемся кошмаре о роботе-убийце.

Выдуманная вселенная состояла из апокалиптического будущего после серии ядерных ударов, учинённых вышедшей из-под контроля компьютерной программой «Скайнет». Роботы объявили войну человечеству, загнанному в подполье. Различные модификации смертельно опасных машин бороздили небо и землю, уничтожая всё живое, запирая некоторое количество людей в специальные лагеря. Однако всё же Сопротивление оказалось близко к победе, но «Скайнет» решила изменить ход дел, выстроив машину времени, отправив в прошлое 1984 года терминатора с миссией ликвидировать мать будущего лидера людей…

[spoiler=Внимание!]Перед скачиванием обязательно проверьте Сэмплы на своем оборудовании.

[/spoiler]
[spoiler=Дополнительная информация]
Оптимальные настройки http://www.svp-team.com/wiki/Аппаратные_декодеры
В 2,5 раза больше кадров!
В 2,5 раза плавнее! (59,94 fps)
Приятного просмотра. =)
[/spoiler]

[spoiler=Терминатор]

Терминатор / The Terminator

Терминатор / Terminator (1984-2009) BDRip 1080p | 60 fps

Год: 1984 , 1991 , 1983 , 2003 , 2009
Жанр: Боевик, Фантастика, Триллер
Производство:США
Описание фильма:
История противостояния солдата Кайла Риза и киборга-терминатора, прибывших в 1984-й год из пост-апокалиптического будущего, где миром правят машины-убийцы, а человечество находится на грани вымирания. Цель киборга: убить девушку по имени Сара Коннор, чей ещё нерождённый сын к 2029 году выиграет войну человечества с машинами. Цель Риза: спасти Сару и остановить Терминатора любой ценой.

Режиссер: Джеймс Кэмерон
Актеры: Арнольд Шварценеггер , Майкл Бин , Линда Хэмилтон , Пол Уинфилд , Лэнс Хенриксен , Рик Россович , Бесс Мотта , Эрл Боэн , Дик Миллер , Шон Шеппс

Продолжительность: 01:47:24
Качество видео: BDRip
Перевод: Дублированный, Многоголосый закадровый, Двухголосый закадровый
Язык субтитров: Русский (форс.), Русский (полные), Английский (полные)
Вид субтитров: Вшитые

Терминатор / Terminator (1984-2009) BDRip 1080p | 60 fps Терминатор / Terminator (1984-2009) BDRip 1080p | 60 fps

Видеокодек: MPEG-4 AVC/H.264
Битрейт видео: ~11900 kb/s
Размер кадра: 1920*1040
Аудио 1 Русский: AC3 5.1, 640 kb/s, Студия BD CEE
Аудио 2 Русский: AC3 5.1, 640 kb/s, Студия Карусель
Аудио 3 Русский: AC3 5.1, 640 kb/s, Студия Киномания (новая)
Аудио 4 Русский: AC3 5.1, 640 kb/s, Студия ОРТ
Аудио 5 Русский: AC3 5.1, 640 kb/s, Студия 1 Канал
Аудио 6 Русский: AC3 5.1, 640 kb/s, Студия Позитив
Аудио 7 Русский: AC3 5.1, 640 kb/s, Студия Гемини
Аудио 8 Русский: AC3 5.1, 384 kb/s, Студия Киномания (старая)
Аудио 9 Русский: AC3 2.0, 256 kb/s, Студия Хлопушка
Аудио 10 Русский: AC3 2.0, 192 kb/s, Студия НТВ+
Аудио 11 Русский: AC3 2.0, 192 kb/s, Рен ТВ
Аудио 12 Украинский: AC3 5.1, 384 kb/s, Студия 1+1
Аудио 13 Английский: AC3 5.1, 640 kb/s
Сэмпл: Ссылка

Скриншоты
Терминатор / Terminator (1984-2009) BDRip 1080p | 60 fps Терминатор / Terminator (1984-2009) BDRip 1080p | 60 fps Терминатор / Terminator (1984-2009) BDRip 1080p | 60 fps Терминатор / Terminator (1984-2009) BDRip 1080p | 60 fps

[spoiler=MI]Общее
Уникальный идентификатор : 244030132559245619280709654661867098032 (0xB7967E7459A9559CBA814CB6C109CFB0)
Полное имя : F:Терминатор 1080p 60fpsТерминатор 1 1080p 60fps.mkv
Формат : Matroska
Версия формата : Version 4 / Version 2
Размер файла : 14,0 Гбайт
Продолжительность : 1 ч. 47 м.
Общий поток : 18,6 Мбит/сек
Название фильма : The Terminator (1984) - Release for   by Skazhutin & Прагматик
Дата кодирования : UTC 2014-07-19 11:53:10
Программа кодирования : mkvmerge v6.9.1 ('Blue Panther') 64bit built on Apr 18 2014 18:23:38
Библиотека кодирования : libebml v1.3.0 + libmatroska v1.4.1
Обложка : Yes

Видео
Идентификатор : 1
Формат : AVC
Формат/Информация : Advanced Video Codec
Профиль формата : [email protected]
Параметр CABAC формата : Да
Параметр ReFrames формата : 4 кадра
Идентификатор кодека : V_MPEG4/ISO/AVC
Продолжительность : 1 ч. 47 м.
Битрейт : 11,9 Мбит/сек
Ширина : 1920 пикселей
Высота : 1040 пикселей
Соотношение сторон : 1,85:1
Режим частоты кадров : Постоянный
Частота кадров : 59,880 кадров/сек
Частота кадров в оригинале : 59,940 кадров/сек
Цветовое пространство : YUV
Субдискретизация насыщенности : 4:2:0
Битовая глубина : 8 бит
Тип развёртки : Прогрессивная
Бит/(Пиксели*Кадры) : 0.099
Размер потока : 8,91 Гбайт (64%)
Библиотека кодирования : x264 core 130 r2273 b3065e6
Настройки программы : cabac=1 / ref=4 / deblock=1:-1:-1 / analyse=0x3:0 / me=umh / subme=9 / psy=1 / psy_rd=1.00:0.10 / mixed_ref=1 / me_range=42 / chroma_me=0 / trellis=2 / 8x8dct=1 / cqm=0 / deadzone=21,11 / fast_pskip=0 / chroma_qp_offset=-3 / threads=12 / lookahead_threads=1 / sliced_threads=0 / nr=0 / decimate=0 / interlaced=0 / bluray_compat=0 / constrained_intra=0 / bframes=5 / b_pyramid=2 / b_adapt=2 / b_bias=0 / direct=1 / weightb=1 / open_gop=0 / weightp=2 / keyint=594 / keyint_min=59 / scenecut=40 / intra_refresh=0 / rc=crf / mbtree=0 / crf=18.0 / qcomp=0.60 / qpmin=0 / qpmax=69 / qpstep=4 / ip_ratio=1.40 / pb_ratio=1.30 / aq=0
Язык : English
Default : Да
Forced : Нет

Аудио #1
Идентификатор : 2
Формат : AC-3
Формат/Информация : Audio Coding 3
Расширение режима : CM (complete main)
Параметр Endianness формата : Big
Идентификатор кодека : A_AC3
Продолжительность : 1 ч. 47 м.
Вид битрейта : Постоянный
Битрейт : 640 Кбит/сек
Каналы : 6 каналов
Расположение каналов : Front: L C R, Side: L R, LFE
Частота : 48,0 КГц
Битовая глубина : 16 бит
Метод сжатия : С потерями
Размер потока : 492 Мбайт (3%)
Заголовок : Dub BD CEE
Язык : Russian
Default : Да
Forced : Нет

Аудио #2
Идентификатор : 3
Формат : AC-3
Формат/Информация : Audio Coding 3
Расширение режима : CM (complete main)
Параметр Endianness формата : Big
Идентификатор кодека : A_AC3
Продолжительность : 1 ч. 47 м.
Вид битрейта : Постоянный
Битрейт : 640 Кбит/сек
Каналы : 6 каналов
Расположение каналов : Front: L C R, Side: L R, LFE
Частота : 48,0 КГц
Битовая глубина : 16 бит
Метод сжатия : С потерями
Размер потока : 492 Мбайт (3%)
Заголовок : MVO Karusel
Язык : Russian
Default : Нет
Forced : Нет

Аудио #3
Идентификатор : 4
Формат : AC-3
Формат/Информация : Audio Coding 3
Расширение режима : CM (complete main)
Параметр Endianness формата : Big
Идентификатор кодека : A_AC3
Продолжительность : 1 ч. 47 м.
Вид битрейта : Постоянный
Битрейт : 640 Кбит/сек
Каналы : 6 каналов
Расположение каналов : Front: L C R, Side: L R, LFE
Частота : 48,0 КГц
Битовая глубина : 16 бит
Метод сжатия : С потерями
Размер потока : 492 Мбайт (3%)
Заголовок : MVO Kinomania new
Язык : Russian
Default : Нет
Forced : Нет

Аудио #4
Идентификатор : 5
Формат : AC-3
Формат/Информация : Audio Coding 3
Расширение режима : CM (complete main)
Параметр Endianness формата : Big
Идентификатор кодека : A_AC3
Продолжительность : 1 ч. 47 м.
Вид битрейта : Постоянный
Битрейт : 640 Кбит/сек
Каналы : 6 каналов
Расположение каналов : Front: L C R, Side: L R, LFE
Частота : 48,0 КГц
Битовая глубина : 16 бит
Метод сжатия : С потерями
Размер потока : 492 Мбайт (3%)
Заголовок : MVO ORT
Язык : Russian
Default : Нет
Forced : Нет

Аудио #5
Идентификатор : 6
Формат : AC-3
Формат/Информация : Audio Coding 3
Расширение режима : CM (complete main)
Параметр Endianness формата : Big
Идентификатор кодека : A_AC3
Продолжительность : 1 ч. 47 м.
Вид битрейта : Постоянный
Битрейт : 640 Кбит/сек
Каналы : 6 каналов
Расположение каналов : Front: L C R, Side: L R, LFE
Частота : 48,0 КГц
Битовая глубина : 16 бит
Метод сжатия : С потерями
Размер потока : 492 Мбайт (3%)
Заголовок : MVO 1 Kanal
Язык : Russian
Default : Нет
Forced : Нет

Аудио #6
Идентификатор : 7
Формат : AC-3
Формат/Информация : Audio Coding 3
Расширение режима : CM (complete main)
Параметр Endianness формата : Big
Идентификатор кодека : A_AC3
Продолжительность : 1 ч. 47 м.
Вид битрейта : Постоянный
Битрейт : 640 Кбит/сек
Каналы : 6 каналов
Расположение каналов : Front: L C R, Side: L R, LFE
Частота : 48,0 КГц
Битовая глубина : 16 бит
Метод сжатия : С потерями
Размер потока : 492 Мбайт (3%)
Заголовок : MVO Pozitiv
Язык : Russian
Default : Нет
Forced : Нет

Аудио #7
Идентификатор : 8
Формат : AC-3
Формат/Информация : Audio Coding 3
Расширение режима : CM (complete main)
Параметр Endianness формата : Big
Идентификатор кодека : A_AC3
Продолжительность : 1 ч. 47 м.
Вид битрейта : Постоянный
Битрейт : 448 Кбит/сек
Каналы : 6 каналов
Расположение каналов : Front: L C R, Side: L R, LFE
Частота : 48,0 КГц
Битовая глубина : 16 бит
Метод сжатия : С потерями
Размер потока : 344 Мбайт (2%)
Заголовок : MVO Gemini
Язык : Russian
Default : Нет
Forced : Нет

Аудио #8
Идентификатор : 9
Формат : AC-3
Формат/Информация : Audio Coding 3
Расширение режима : CM (complete main)
Параметр Endianness формата : Big
Идентификатор кодека : A_AC3
Продолжительность : 1 ч. 47 м.
Вид битрейта : Постоянный
Битрейт : 384 Кбит/сек
Каналы : 6 каналов
Расположение каналов : Front: L C R, Side: L R, LFE
Частота : 48,0 КГц
Битовая глубина : 16 бит
Метод сжатия : С потерями
Размер потока : 295 Мбайт (2%)
Заголовок : MVO Kinomania old
Язык : Russian
Default : Нет
Forced : Нет

Аудио #9
Идентификатор : 10
Формат : AC-3
Формат/Информация : Audio Coding 3
Расширение режима : CM (complete main)
Параметр Endianness формата : Big
Идентификатор кодека : A_AC3
Продолжительность : 1 ч. 47 м.
Вид битрейта : Постоянный
Битрейт : 256 Кбит/сек
Каналы : 2 канала
Расположение каналов : Front: L R
Частота : 48,0 КГц
Битовая глубина : 16 бит
Метод сжатия : С потерями
Размер потока : 197 Мбайт (1%)
Заголовок : Dub Hlopushka
Язык : Russian
Default : Нет
Forced : Нет

Аудио #10
Идентификатор : 11
Формат : AC-3
Формат/Информация : Audio Coding 3
Расширение режима : CM (complete main)
Параметр Endianness формата : Big
Идентификатор кодека : A_AC3
Продолжительность : 1 ч. 47 м.
Вид битрейта : Постоянный
Битрейт : 192 Кбит/сек
Каналы : 2 канала
Расположение каналов : Front: L R
Частота : 48,0 КГц
Битовая глубина : 16 бит
Метод сжатия : С потерями
Размер потока : 148 Мбайт (1%)
Заголовок : MVO NTV+
Язык : Russian
Default : Нет
Forced : Нет

Аудио #11
Идентификатор : 12
Формат : AC-3
Формат/Информация : Audio Coding 3
Расширение режима : CM (complete main)
Параметр Endianness формата : Big
Идентификатор кодека : A_AC3
Продолжительность : 1 ч. 47 м.
Вид битрейта : Постоянный
Битрейт : 192 Кбит/сек
Каналы : 2 канала
Расположение каналов : Front: L R
Частота : 48,0 КГц
Битовая глубина : 16 бит
Метод сжатия : С потерями
Размер потока : 148 Мбайт (1%)
Заголовок : MVO REN-TV
Язык : Russian
Default : Нет
Forced : Нет

Аудио #12
Идентификатор : 13
Формат : AC-3
Формат/Информация : Audio Coding 3
Расширение режима : CM (complete main)
Параметр Endianness формата : Big
Идентификатор кодека : A_AC3
Продолжительность : 1 ч. 47 м.
Вид битрейта : Постоянный
Битрейт : 448 Кбит/сек
Каналы : 6 каналов
Расположение каналов : Front: L C R, Side: L R, LFE
Частота : 48,0 КГц
Битовая глубина : 16 бит
Метод сжатия : С потерями
Размер потока : 344 Мбайт (2%)
Заголовок : DVO 1+1
Язык : Ukrainian
Default : Нет
Forced : Нет

Аудио #13
Идентификатор : 14
Формат : AC-3
Формат/Информация : Audio Coding 3
Расширение режима : CM (complete main)
Параметр Endianness формата : Big
Идентификатор кодека : A_AC3
Продолжительность : 1 ч. 47 м.
Вид битрейта : Постоянный
Битрейт : 640 Кбит/сек
Каналы : 6 каналов
Расположение каналов : Front: L C R, Side: L R, LFE
Частота : 48,0 КГц
Битовая глубина : 16 бит
Метод сжатия : С потерями
Размер потока : 492 Мбайт (3%)
Заголовок : Original
Язык : English
Default : Нет
Forced : Нет

Текст #1
Идентификатор : 15
Формат : UTF-8
Идентификатор кодека : S_TEXT/UTF8
Идентификатор кодека/Информация : UTF-8 Plain Text
Заголовок : Forced
Язык : Russian
Default : Да
Forced : Нет

Текст #2
Идентификатор : 16
Формат : UTF-8
Идентификатор кодека : S_TEXT/UTF8
Идентификатор кодека/Информация : UTF-8 Plain Text
Заголовок : Full
Язык : Russian
Default : Нет
Forced : Нет

Текст #3
Идентификатор : 17
Формат : UTF-8
Идентификатор кодека : S_TEXT/UTF8
Идентификатор кодека/Информация : UTF-8 Plain Text
Заголовок : Full
Язык : English
Default : Нет
Forced : Нет

Меню
00:00:00.000 : en:2029 a.D./Main Title
00:03:32.253 : en:The Arrival
00:05:18.151 : en:New Wardrobe
00:06:31.015 : en:Second Visitor
00:11:38.322 : en:Hard-Working Girl
00:13:45.324 : en:Gun Men
00:15:11.827 : en:'Sarah Connor?'
00:20:44.618 : en:Phone Book Rampage
00:22:49.618 : en:Last One Left
00:29:49.787 : en:Uninvited Guest
00:33:15.034 : en:The Last Day of Disco
00:38:47.116 : en:Running Commentary
00:41:25.191 : en:The Possible Future
00:47:46.488 : en:'Drive!'
00:50:39.995 : en:Safety in Uniforms
00:54:41.569 : en:Self-Service
00:59:04.916 : en:I'll Be Back!'
01:03:53.538 : en:Mother of the Future
01:09:37.548 : en:The War to Come
01:14:08.986 : en:Answering Machine
01:15:00.078 : en:Not Mom
01:17:18.800 : en:Recipe for Disaster
01:18:30.372 : en:Present for the Future
01:23:00.892 : en:Hot Pursuit
01:26:24.721 : en:Run Over By a Truck
01:30:22.583 : en:Hunk O' Burning Steel
01:32:19.367 : en:Factory Foolery
01:35:52.121 : en:Head Without Heels
01:39:53.862 : en:Survivor
01:40:18.721 : en:Tapes for John
01:40:49.334 : en:A Storm Is Coming
01:43:12.895 : en:End Credits[/spoiler]
[/spoiler]
[spoiler=Терминатор 2: Судный день]

Терминатор 2: Судный день / Terminator 2: Judgment Day

Терминатор / Terminator (1984-2009) BDRip 1080p | 60 fps

Год: 1984 , 1991 , 1983 , 2003 , 2009
Жанр: Боевик, Фантастика, Триллер
Производство:США , Франция
Описание фильма:
Прошло более десяти лет с тех пор, как киборг-терминатор из 2029 года пытался уничтожить Сару Коннор — женщину, чей будущий сын выиграет войну человечества против машин.

Теперь у Сары родился сын Джон и время, когда он поведёт за собой выживших людей на борьбу с машинами, неумолимо приближается. Именно в этот момент из постапокалиптического будущего прибывает новый терминатор — практически неуязвимый и способный принимать любое обличье. Цель нового терминатора уже не Сара, а уничтожение молодого Джона Коннора.

Однако шансы Джона на спасение существенно повышаются, когда на помощь приходит перепрограммированный сопротивлением терминатор предыдущего поколения. Оба киборга вступают в смертельный бой, от исхода которого зависит судьба человечества.

Режиссер: Джеймс Кэмерон
Актеры:Арнольд Шварценеггер , Линда Хэмилтон , Эдвард Ферлонг , Роберт Патрик , Эрл Боэн , Джо Мортон , С. Эпата Меркерсон , Кастуло Герра , Дэнни Кукси , Дженетт Голдстин

Продолжительность: 02:33:25
Качество видео: BDRip
Перевод: Многоголосный закадровый
Язык субтитров: Русский (полные), Английский (полные)
Вид субтитров: Вшитые

Терминатор / Terminator (1984-2009) BDRip 1080p | 60 fps Терминатор / Terminator (1984-2009) BDRip 1080p | 60 fps

Видеокодек: MPEG-4 AVC/H.264
Битрейт видео: ~8722 kb/s
Размер кадра: 1920*808
Аудио 1 Русский: AC3 5.1, 640 kb/s, Студия Киномания
Аудио 2 Русский: AC3 5.1, 640 kb/s, Студия ОРТ
Аудио 3 Русский: AC3 5.1, 640 kb/s, Студия Позитив
Аудио 4 Русский: AC3 5.1, 640 kb/s, Студия ТВ-6
Аудио 5 Русский: AC3 5.1, 384 kb/s, Студия 1+1
Аудио 6 Английский: AC3 5.1, 640 kb/s,
Сэмпл: Ссылка

Терминатор / Terminator (1984-2009) BDRip 1080p | 60 fps Терминатор / Terminator (1984-2009) BDRip 1080p | 60 fps Терминатор / Terminator (1984-2009) BDRip 1080p | 60 fps Терминатор / Terminator (1984-2009) BDRip 1080p | 60 fps

[spoiler=MI]Общее
Уникальный идентификатор : 209492966648984925544618566158016194440 (0x9D9AE0B4EE32591F9C0C99216B422788)
Полное имя : F:Терминатор 1080p 60fpsТерминатор 2 1080p 60fps.mkv
Формат : Matroska
Версия формата : Version 4 / Version 2
Размер файла : 13,5 Гбайт
Продолжительность : 2 ч. 33 м.
Общий поток : 12,6 Мбит/сек
Дата кодирования : UTC 2014-07-19 16:18:12
Программа кодирования : mkvmerge v6.9.1 ('Blue Panther') 64bit built on Apr 18 2014 18:23:38
Библиотека кодирования : libebml v1.3.0 + libmatroska v1.4.1

Видео
Идентификатор : 1
Формат : AVC
Формат/Информация : Advanced Video Codec
Профиль формата : [email protected]
Параметр CABAC формата : Да
Параметр ReFrames формата : 4 кадра
Идентификатор кодека : V_MPEG4/ISO/AVC
Продолжительность : 2 ч. 33 м.
Битрейт : 8722 Кбит/сек
Ширина : 1920 пикселей
Высота : 808 пикселей
Соотношение сторон : 2,40:1
Режим частоты кадров : Постоянный
Частота кадров : 59,880 кадров/сек
Частота кадров в оригинале : 59,940 кадров/сек
Цветовое пространство : YUV
Субдискретизация насыщенности : 4:2:0
Битовая глубина : 8 бит
Тип развёртки : Прогрессивная
Бит/(Пиксели*Кадры) : 0.094
Размер потока : 9,35 Гбайт (69%)
Библиотека кодирования : x264 core 130 r2273 b3065e6
Настройки программы : cabac=1 / ref=4 / deblock=1:-1:-1 / analyse=0x3:0 / me=umh / subme=9 / psy=1 / psy_rd=1.00:0.10 / mixed_ref=1 / me_range=42 / chroma_me=0 / trellis=2 / 8x8dct=1 / cqm=0 / deadzone=21,11 / fast_pskip=0 / chroma_qp_offset=-3 / threads=12 / lookahead_threads=1 / sliced_threads=0 / nr=0 / decimate=0 / interlaced=0 / bluray_compat=0 / constrained_intra=0 / bframes=5 / b_pyramid=2 / b_adapt=2 / b_bias=0 / direct=1 / weightb=1 / open_gop=0 / weightp=2 / keyint=594 / keyint_min=59 / scenecut=40 / intra_refresh=0 / rc=crf / mbtree=0 / crf=18.0 / qcomp=0.60 / qpmin=0 / qpmax=69 / qpstep=4 / ip_ratio=1.40 / pb_ratio=1.30 / aq=0
Язык : English
Default : Да
Forced : Нет

Аудио #1
Идентификатор : 2
Формат : AC-3
Формат/Информация : Audio Coding 3
Расширение режима : CM (complete main)
Параметр Endianness формата : Big
Идентификатор кодека : A_AC3
Продолжительность : 2 ч. 33 м.
Вид битрейта : Постоянный
Битрейт : 640 Кбит/сек
Каналы : 6 каналов
Расположение каналов : Front: L C R, Side: L R, LFE
Частота : 48,0 КГц
Битовая глубина : 16 бит
Метод сжатия : С потерями
Размер потока : 702 Мбайт (5%)
Заголовок : MVO Kinomania
Язык : Russian
Default : Да
Forced : Нет

Аудио #2
Идентификатор : 3
Формат : AC-3
Формат/Информация : Audio Coding 3
Расширение режима : CM (complete main)
Параметр Endianness формата : Big
Идентификатор кодека : A_AC3
Продолжительность : 2 ч. 33 м.
Вид битрейта : Постоянный
Битрейт : 640 Кбит/сек
Каналы : 6 каналов
Расположение каналов : Front: L C R, Side: L R, LFE
Частота : 48,0 КГц
Битовая глубина : 16 бит
Метод сжатия : С потерями
Размер потока : 702 Мбайт (5%)
Заголовок : MVO ORT
Язык : Russian
Default : Нет
Forced : Нет

Аудио #3
Идентификатор : 4
Формат : AC-3
Формат/Информация : Audio Coding 3
Расширение режима : CM (complete main)
Параметр Endianness формата : Big
Идентификатор кодека : A_AC3
Продолжительность : 2 ч. 33 м.
Вид битрейта : Постоянный
Битрейт : 640 Кбит/сек
Каналы : 6 каналов
Расположение каналов : Front: L C R, Side: L R, LFE
Частота : 48,0 КГц
Битовая глубина : 16 бит
Метод сжатия : С потерями
Размер потока : 702 Мбайт (5%)
Заголовок : MVO Pozitiv
Язык : Russian
Default : Нет
Forced : Нет

Аудио #4
Идентификатор : 5
Формат : AC-3
Формат/Информация : Audio Coding 3
Расширение режима : CM (complete main)
Параметр Endianness формата : Big
Идентификатор кодека : A_AC3
Продолжительность : 2 ч. 33 м.
Вид битрейта : Постоянный
Битрейт : 640 Кбит/сек
Каналы : 6 каналов
Расположение каналов : Front: L C R, Side: L R, LFE
Частота : 48,0 КГц
Битовая глубина : 16 бит
Метод сжатия : С потерями
Размер потока : 702 Мбайт (5%)
Заголовок : MVO TV-6
Язык : Russian
Default : Нет
Forced : Нет

Аудио #5
Идентификатор : 6
Формат : AC-3
Формат/Информация : Audio Coding 3
Расширение режима : CM (complete main)
Параметр Endianness формата : Big
Идентификатор кодека : A_AC3
Продолжительность : 2 ч. 33 м.
Вид битрейта : Постоянный
Битрейт : 384 Кбит/сек
Каналы : 6 каналов
Расположение каналов : Front: L C R, Side: L R, LFE
Частота : 48,0 КГц
Битовая глубина : 16 бит
Метод сжатия : С потерями
Размер потока : 421 Мбайт (3%)
Заголовок : MVO 1+1
Язык : Ukrainian
Default : Нет
Forced : Нет

Аудио #6
Идентификатор : 7
Формат : AC-3
Формат/Информация : Audio Coding 3
Расширение режима : CM (complete main)
Параметр Endianness формата : Big
Идентификатор кодека : A_AC3
Продолжительность : 2 ч. 33 м.
Вид битрейта : Постоянный
Битрейт : 640 Кбит/сек
Каналы : 6 каналов
Расположение каналов : Front: L C R, Side: L R, LFE
Частота : 48,0 КГц
Битовая глубина : 16 бит
Метод сжатия : С потерями
Размер потока : 702 Мбайт (5%)
Заголовок : Original
Язык : English
Default : Нет
Forced : Нет

Текст #1
Идентификатор : 8
Формат : UTF-8
Идентификатор кодека : S_TEXT/UTF8
Идентификатор кодека/Информация : UTF-8 Plain Text
Заголовок : Full
Язык : Russian
Default : Нет
Forced : Нет

Текст #2
Идентификатор : 9
Формат : UTF-8
Идентификатор кодека : S_TEXT/UTF8
Идентификатор кодека/Информация : UTF-8 Plain Text
Заголовок : Full
Язык : English
Default : Нет
Forced : Нет

Меню
00:00:00.000 : :00:00:00.000
00:05:35.210 : :00:05:35.210
00:16:31.407 : :00:16:31.407
00:31:19.878 : :00:31:19.878
00:38:52.664 : :00:38:52.664
00:49:48.110 : :00:49:48.110
01:06:24.314 : :01:06:24.314
01:28:59.751 : :01:28:59.751
01:35:16.753 : :01:35:16.753
01:44:23.799 : :01:44:23.799
01:59:43.593 : :01:59:43.593
02:08:43.716 : :02:08:43.716
[/spoiler]
[/spoiler]
[spoiler=Терминатор 3: Восстание машин]

Терминатор 3: Восстание машин / Terminator 3: Rise of the Machines

Терминатор / Terminator (1984-2009) BDRip 1080p | 60 fps

Год: 1984 , 1991 , 1983 , 2003 , 2009
Жанр: Боевик, Фантастика, Триллер
Производство:США , Германия , Великобритания
Описание фильма:
Прошло десять лет с тех пор, как Джон Коннор помог предотвратить Судный День и спасти человечество от массового уничтожения. Теперь ему 25, Коннор не живет «как все» — у него нет дома, нет кредитных карт, нет сотового телефона и никакой работы.

Его существование нигде не зарегистрировано. Он не может быть прослежен системой Skynet — высокоразвитой сетью машин, которые когда-то попробовали убить его и развязать войну против человечества. Пока из теней будущего не появляется T-X — Терминатрикс, самый сложный киборг-убийца Skynet.

Посланная назад сквозь время, чтобы завершить работу, начатую её предшественником, T-1000, эта машина так же упорна, как прекрасен её человеческий облик. Теперь единственная надежда Коннору выжить — Терминатор, его таинственный прежний убийца. Вместе они должны одержать победу над новыми технологиями T-X и снова предотвратить Судный День…

Режиссер: Джонатан Мостоу
Актеры:Арнольд Шварценеггер , Ник Стал , Клэр Дэйнс , Кристанна Локен , Дэвид Эндрюс , Марк Фамиглетти , Эрл Боэн , Мойра Харрис , Чоппер Бернет , Кристофер Лоуфорд

Продолжительность: 01:49:06
Качество видео: BDRip
Перевод: Дублированный, Многоголосый закадровый
Язык субтитров: Русский (форс.), Русский (полные), Английский (полные)
Вид субтитров: Вшитые, отключаемые

Терминатор / Terminator (1984-2009) BDRip 1080p | 60 fps Терминатор / Terminator (1984-2009) BDRip 1080p | 60 fps

Видеокодек: MPEG-4 AVC/H.264
Битрейт видео: ~6390 kb/s
Размер кадра: 1920*792
Аудио 1 Русский: AC3 5.1, 640 kb/s, Студия BD CEE
Аудио 2 Русский: AC3 5.1, 640 kb/s, Студия Карусель
Аудио 3 Украинский: AC3 5.1, 384 kb/s, Студия ТРК
Аудио 4 Английский: AC3 5.1, 640 kb/s
Сэмпл: Ссылка

Терминатор / Terminator (1984-2009) BDRip 1080p | 60 fps Терминатор / Terminator (1984-2009) BDRip 1080p | 60 fps Терминатор / Terminator (1984-2009) BDRip 1080p | 60 fps Терминатор / Terminator (1984-2009) BDRip 1080p | 60 fps

[spoiler=MI]Общее
Уникальный идентификатор : 231236610307040617297165976825956348357 (0xADF68D1BA1FF9C54BC8A9E5DDAB731C5)
Полное имя : F:Терминатор 1080p 60fpsТерминатор 3 1080p 60fps.mkv
Формат : Matroska
Версия формата : Version 4 / Version 2
Размер файла : 6,76 Гбайт
Продолжительность : 1 ч. 49 м.
Общий поток : 8870 Кбит/сек
Дата кодирования : UTC 2014-07-19 17:49:32
Программа кодирования : mkvmerge v6.9.1 ('Blue Panther') 64bit built on Apr 18 2014 18:23:38
Библиотека кодирования : libebml v1.3.0 + libmatroska v1.4.1

Видео
Идентификатор : 1
Формат : AVC
Формат/Информация : Advanced Video Codec
Профиль формата : [email protected]
Параметр CABAC формата : Да
Параметр ReFrames формата : 4 кадра
Идентификатор кодека : V_MPEG4/ISO/AVC
Продолжительность : 1 ч. 49 м.
Битрейт : 6390 Кбит/сек
Ширина : 1920 пикселей
Высота : 792 пикселя
Соотношение сторон : 2,40:1
Режим частоты кадров : Постоянный
Частота кадров : 59,880 кадров/сек
Частота кадров в оригинале : 59,940 кадров/сек
Цветовое пространство : YUV
Субдискретизация насыщенности : 4:2:0
Битовая глубина : 8 бит
Тип развёртки : Прогрессивная
Бит/(Пиксели*Кадры) : 0.070
Размер потока : 4,87 Гбайт (72%)
Библиотека кодирования : x264 core 130 r2273 b3065e6
Настройки программы : cabac=1 / ref=4 / deblock=1:-1:-1 / analyse=0x3:0 / me=umh / subme=9 / psy=1 / psy_rd=1.00:0.10 / mixed_ref=1 / me_range=42 / chroma_me=0 / trellis=2 / 8x8dct=1 / cqm=0 / deadzone=21,11 / fast_pskip=0 / chroma_qp_offset=-3 / threads=12 / lookahead_threads=1 / sliced_threads=0 / nr=0 / decimate=0 / interlaced=0 / bluray_compat=0 / constrained_intra=0 / bframes=5 / b_pyramid=2 / b_adapt=2 / b_bias=0 / direct=1 / weightb=1 / open_gop=0 / weightp=2 / keyint=594 / keyint_min=59 / scenecut=40 / intra_refresh=0 / rc=crf / mbtree=0 / crf=18.0 / qcomp=0.60 / qpmin=0 / qpmax=69 / qpstep=4 / ip_ratio=1.40 / pb_ratio=1.30 / aq=0
Язык : English
Default : Да
Forced : Нет

Аудио #1
Идентификатор : 2
Формат : AC-3
Формат/Информация : Audio Coding 3
Расширение режима : CM (complete main)
Параметр Endianness формата : Big
Идентификатор кодека : A_AC3
Продолжительность : 1 ч. 49 м.
Вид битрейта : Постоянный
Битрейт : 640 Кбит/сек
Каналы : 6 каналов
Расположение каналов : Front: L C R, Side: L R, LFE
Частота : 48,0 КГц
Битовая глубина : 16 бит
Метод сжатия : С потерями
Размер потока : 499 Мбайт (7%)
Заголовок : Dub
Язык : Russian
Default : Да
Forced : Нет

Аудио #2
Идентификатор : 3
Формат : AC-3
Формат/Информация : Audio Coding 3
Расширение режима : CM (complete main)
Параметр Endianness формата : Big
Идентификатор кодека : A_AC3
Продолжительность : 1 ч. 49 м.
Вид битрейта : Постоянный
Битрейт : 640 Кбит/сек
Каналы : 6 каналов
Расположение каналов : Front: L C R, Side: L R, LFE
Частота : 48,0 КГц
Битовая глубина : 16 бит
Метод сжатия : С потерями
Размер потока : 499 Мбайт (7%)
Заголовок : MVO Karusel
Язык : Russian
Default : Нет
Forced : Нет

Аудио #3
Идентификатор : 4
Формат : AC-3
Формат/Информация : Audio Coding 3
Расширение режима : CM (complete main)
Параметр Endianness формата : Big
Идентификатор кодека : A_AC3
Продолжительность : 1 ч. 49 м.
Вид битрейта : Постоянный
Битрейт : 384 Кбит/сек
Каналы : 6 каналов
Расположение каналов : Front: L C R, Side: L R, LFE
Частота : 48,0 КГц
Битовая глубина : 16 бит
Метод сжатия : С потерями
Размер потока[/spoiler]
Скачать торрент Магнет ссылка Размер: 42,59 Gb Скачали: 101
Содержание:
Терминатор 1080p 60fps (4 файла)
mkv Терминатор 1 1080p 60fps.mkv (13,99 Gb)
mkv Терминатор 2 1080p 60fps.mkv (13,46 Gb)
mkv Терминатор 3 1080p 60fps.mkv (6,76 Gb)
mkv Терминатор 4 1080p 60fps.mkv (8,38 Gb)

Скачать Терминатор / Terminator (1984-2009) BDRip 1080p | 60 fps через торрент бесплатно

Прокомментировать
Введите код с картинки:*
Кликните на изображение чтобы обновить код, если он неразборчив