» » Холодное сердце / Frozen (2013) BDRip 1080p | 3D-Video | halfOU | Лицензия скачать торрент бесплатно в хорошем качестве

Холодное сердце / Frozen (2013) BDRip 1080p | 3D-Video | halfOU | Лицензия

Fox | 840 просмотров | 3 комментария
05
01
2017
Холодное сердце / Frozen (2013) BDRip 1080p | 3D-Video | halfOU | Лицензия


Год выпуска: 2013
Страна: США (Walt Disney Animation Studios)
Жанр: Мультфильм, Мюзикл, Фэнтези, Комедия, Мелодрама, Приключения, Семейный
Продолжительность: 1:42:13

Перевод: Профессиональный дублированный (Лицензия)

Режиссеры: Крис Бак, Дженнифер Ли / Chris Buck, Jennifer Lee

Роли озвучивали (дублировали):



Anna - Кристен Белл (Наталия Быстрова)
Elsa - Идина Мензел (Анна Бутурлина)
Kristoff - Джонатан Грофф (Андрей Бирин)
Olaf - Джош Гад (Сергей Пенкин)
Hans - Сантино Фонтана (Дима Билан)
Duke - Алан Тьюдик
Pabbie / Grandpa - Киаран Хайндс (Владимир Рыбальченко)
Oaken - Крис Уильямс
Kai - Стивен Дж. Андерсон (Сергей Чихачев)
Gerda - Эди МакКлёрг
Bulda - Майа Уилсон (Анастасия Лапина)
Bishop - Роберт Пайн
King - Морис ЛаМарш


Описание: Когда древнее предсказание сбывается и королевство погружается в объятия вечной зимы, трое бесстрашных героев — принцесса Анна, отважный Кристофф и его верный олень Свен — отправляются в горы, чтобы найти сестру Анны, Эльзу, которая может снять со страны леденящее заклятие. По пути их ждет множество увлекательных сюрпризов и захватывающих приключений: встреча с мистическими троллями, знакомство с очаровательным снеговиком по имени Олаф, горные вершины покруче Эвереста и магия в каждой снежинке. Анне и Кристоффу предстоит сплотиться и противостоять могучей стихии, чтобы спасти королевство и тех, кто им дорог…

[spoiler]Награды[/spoiler]

[spoiler]Знаете ли вы, что[/spoiler]

[/spoiler]

[spoiler]Ошибки в фильме (осторожно - спойлеры!)[/spoiler]

Премьера: 10 ноября 2013 (12 декабря 2013)
Релиз на Blu-Ray (DVD) (Россия): 8 апреля 2014
Бюджет: 0 000 000
Кассовые сборы: 049 815 938



За исходный BD 3D спасибо и MachoSergio!

Качество: BDRip (by Ash61)
Контейнер: MKV
Формат 3D: Half OverUnder / Вертикальная анаморфная стереопара
Порядок ракурсов: левый ракурс первый
Видео кодек: x264
Аудио кодек: AC3

Видео: AVC / 23,976 fps / 1920х1080p / ~6.6 Mbps

Аудио:
#1 - Русский / AC3 / 48 KHz / 5.1 ch / 640 Kbps (Дубляж - BD 3D CEE)
#2 - Русский / AC3 / 48 KHz / 5.1 ch / 640 Kbps (VO - Юрий Живов) (спасибо ресурсам e180, hdtracker и их меценатам!)
#3 - Английский / AC3 / 48 KHz / 5.1 ch / 640 Kbps (Original - BD 3D CEE)

Субтитры внешние (SRT UTF-8):
#1 - Русские Полные (BD 3D CEE)
#2 - Русские Полные (Нотабеноид)
#3 - English Full
#4 - English SDH
#5 - English SDH-Colored

[spoiler=MediaInfo]General
Unique ID : 245227191189607515608933025685934035311 (0xB87D0A006D1DF9E59FB4500330C9D16F)
Complete name : E:Frozen(2013)3D-halfOU(Ash61)Rus.Video(v2)Frozen(2013)3D-halfOU(Ash61)Rus.Video(v2).mkv
Format : Matroska
Format version : Version 2
File size : 6.23 GiB
Duration : 1h 42mn
Overall bit rate : 8 727 Kbps
Movie name : Холодное сердце / Frozen (2013) 3D
Encoded date : UTC 2014-04-13 11:58:21
Writing application : mkvmerge v5.8.0 ('No Sleep / Pillow') built on Sep 2 2012 15:37:04
Writing library : libebml v1.2.3 + libmatroska v1.3.0

Video
ID : 1
Format : AVC
Format/Info : Advanced Video Codec
Format profile : High@L4.1
Format settings, CABAC : Yes
Format settings, ReFrames : 4 frames
Codec ID : V_MPEG4/ISO/AVC
Duration : 1h 42mn
Bit rate : 6 633 Kbps
Width : 1 920 pixels
Height : 1 080 pixels
Display aspect ratio : 16:9
Frame rate mode : Constant
Frame rate : 23.976 fps
Color space : YUV
Chroma subsampling : 4:2:0
Bit depth : 8 bits
Scan type : Progressive
Bits/(Pixel*Frame) : 0.133
Stream size : 4.74 GiB (76%)
Title : BDRip by Ash61 (Русский видеоряд с BD 3D CEE)v2
Writing library : x264 core 129 r2245 bc13772
Encoding settings : cabac=1 / ref=4 / deblock=1:-3:-3 / analyse=0x3:0x113 / me=umh / subme=10 / psy=1 / psy_rd=1.00:0.15 / mixed_ref=1 / me_range=32 / chroma_me=1 / trellis=2 / 8x8dct=1 / cqm=0 / deadzone=21,11 / fast_pskip=1 / chroma_qp_offset=-3 / threads=12 / lookahead_threads=2 / sliced_threads=0 / nr=0 / decimate=1 / interlaced=0 / bluray_compat=0 / constrained_intra=0 / bframes=8 / b_pyramid=2 / b_adapt=2 / b_bias=0 / direct=3 / weightb=1 / open_gop=0 / weightp=2 / keyint=250 / keyint_min=23 / scenecut=40 / intra_refresh=0 / rc_lookahead=60 / rc=crf / mbtree=1 / crf=17.0 / qcomp=0.70 / qpmin=0 / qpmax=69 / qpstep=4 / vbv_maxrate=40000 / vbv_bufsize=30000 / crf_max=0.0 / nal_hrd=none / frame-packing=4 / ip_ratio=1.40 / aq=1:0.70
Language : English
Default : Yes
Forced : No

Audio #1
ID : 2
Format : AC-3
Format/Info : Audio Coding 3
Mode extension : CM (complete main)
Format settings, Endianness : Big
Codec ID : A_AC3
Duration : 1h 42mn
Bit rate mode : Constant
Bit rate : 640 Kbps
Channel(s) : 6 channels
Channel positions : Front: L C R, Side: L R, LFE
Sampling rate : 48.0 KHz
Bit depth : 16 bits
Compression mode : Lossy
Stream size : 468 MiB (7%)
Title : Дубляж - BD 3D CEE
Language : Russian
Default : Yes
Forced : No

Audio #2
ID : 3
Format : AC-3
Format/Info : Audio Coding 3
Mode extension : CM (complete main)
Format settings, Endianness : Big
Codec ID : A_AC3
Duration : 1h 42mn
Bit rate mode : Constant
Bit rate : 640 Kbps
Channel(s) : 6 channels
Channel positions : Front: L C R, Side: L R, LFE
Sampling rate : 48.0 KHz
Bit depth : 16 bits
Compression mode : Lossy
Stream size : 468 MiB (7%)
Title : Одноголосый закадровый - Юрий Живов
Language : Russian
Default : No
Forced : No

Audio #3
ID : 4
Format : AC-3
Format/Info : Audio Coding 3
Mode extension : CM (complete main)
Format settings, Endianness : Big
Codec ID : A_AC3
Duration : 1h 42mn
Bit rate mode : Constant
Bit rate : 640 Kbps
Channel(s) : 6 channels
Channel positions : Front: L C R, Side: L R, LFE
Sampling rate : 48.0 KHz
Bit depth : 16 bits
Compression mode : Lossy
Stream size : 468 MiB (7%)
Title : Original - BD 3D CEE
Language : English
Default : No
Forced : No

Menu
00:00:00.000 : :1
00:05:59.817 : :2
00:11:37.947 : :3
00:19:53.733 : :4
00:31:03.193 : :5
00:38:39.483 : :6
00:44:21.282 : :7
00:50:51.505 : :8
00:57:48.380 : :9
01:02:57.398 : :10
01:09:36.046 : :11
01:13:34.868 : :12
01:18:07.599 : :13
01:22:33.739 : :14
01:27:10.807 : :15
01:32:33.506 : :16[/spoiler]

[spoiler]Скриншоты[/spoiler]

[spoiler]Для оценки 3Д - Анимированные скрины[/spoiler]
Скачать торрент Магнет ссылка Размер: 6,23 Gb Скачали: 91
Содержание:
Frozen(2013)3D-halfOU(Ash61)Rus.Video(v2) (6 файлов)
Frozen(2013)3D-halfOU(Ash61)Rus.Video(v2).mkv (6,23 Gb)
Subs Eng Full - Frozen(2013)3D-halfOU(Ash61)Rus.Video(v2).srt (100,26 Kb)
Subs Eng SDH - Frozen(2013)3D-halfOU(Ash61)Rus.Video(v2).srt (128,45 Kb)
Subs Eng SDH-Colored - Frozen(2013)3D-halfOU(Ash61)Rus.Video(v2).srt (147,88 Kb)
Субтитры Русские полные (BD 3D CEE) - Frozen(2013)3D-halfOU(Ash61)Rus.Video(v2).srt (110,29 Kb)
Субтитры Русские полные (Нотабеноид) - Frozen(2013)3D-halfOU(Ash61)Rus.Video(v2).srt (117,92 Kb)

Скачать фильм мультфильмХолодное сердце / Frozen (2013) BDRip 1080p | 3D-Video | halfOU | Лицензия через торрент

ktulhu
22 июня 2017 15:50
0
Я понимаю что все хвалят данный мультфильм, он пользуется определенной популярностью и т.д. Но лично мультфильм мне показался чересчур гламурно-девчачим. Да здесь есть несколько ярких моментов, но их мало. В остальном же лично мне, к сожалению мультфильм показался чересчур уж скучным и предсказуемым. 
Kisokot
5 августа 2017 17:30
0
Посмотрела его, ведь так расхвалили. До конца просмотра ждала причину стольких восторгов, но так и не случилось. Обычный мультик, обычные песни. История интересна, но более чем один раз смотреть не хочется. И снеговик не спас для меня этот мультик. В моем лице, этот мультик фаната не приобрел. Не слишком шедевр, для меня загадка столько восторгов.
Ariska
15 августа 2017 11:55
0
Вполне хороший мультфильм, который мне понравился. Это красивая сказка, которая мне очень приглянулась. Красивая графика и анимация, все просто супер. Отличный мультфильм, который может понравиться не только взрослым, но и детям. Или лучше сказать наоборот. Данный мультик очень красочный. Особенно мне понравился снеговик, с него можно смеяться, прикольный он. Мультик можно смотреть много раз, не надоедает. 
Информация
Посетители, находящиеся в группе Гости, не могут оставлять комментарии к данной публикации.
© 2013-2017 filmtor.net